#TITLE:Max DUMB;
#SUBTITLE:;
#ARTIST:The Angry Walrus;
#TITLETRANSLIT:;
#SUBTITLETRANSLIT:;
#ARTISTTRANSLIT:;
#CREDIT:;
#BANNER:max dumb.PNG;
#BACKGROUND:max dumb-bg.PNG;
#LYRICSPATH:;
#CDTITLE:;
#MUSIC:max dumb.mp3;
#OFFSET:0.000;
#SAMPLESTART:21.429;
#SAMPLELENGTH:12.000;
#SELECTABLE:YES;
#BPMS:0.000=280.000;
#STOPS:;
#BGCHANGES:;
// cache tags:
#FIRSTBEAT:20.000;
#LASTBEAT:260.000;
#SONGFILENAME:Songs/Music V.I.P ^_^/Max DUMB/max dumb.sm;
#HASMUSIC:1;
#HASBANNER:1;
#MUSICLENGTH:57.965;
// end cache tags

//---------------dance-single - ----------------
#NOTES:
     dance-single:
     :
     Hard:
     15:
     0.737,1.000,1.000,0.000,0.035,225.000,74.000,0.000,0.000,0.000:
0000
0000
0000
0000
,
0000
0000
0000
0000
,
0000
0000
0000
0000
,
0000
0000
0000
0000
,
0000
0000
0000
0000
,
1000
0000
1000
0000
1000
0001
0000
0001
,
0100
0000
0010
0000
1000
0100
0000
0010
,
0100
0000
1000
0000
0100
0001
0000
0100
,
1000
0010
0100
0000
,
0010
0000
1000
0000
0100
0010
0000
0100
,
0010
0000
0010
0000
0100
1000
0000
1000
,
0010
1000
0010
0000
1000
0010
0000
0010
,
1000
0100
0010
0000
,
0100
0000
1000
0000
0010
0100
0000
0010
,
0100
0000
0001
0000
0100
0010
0000
0010
,
1000
0000
0010
0000
1000
0010
0000
0010
,
0100
0001
0100
0000
,
0010
0000
0100
0000
0001
0100
0000
1000
,
0100
0000
0001
0000
0010
1000
0000
0010
,
0001
0010
0001
0000
0100
0010
0100
0000
,
0010
0000
0000
0000
,
1000
0000
0000
0000
0000
0000
0000
0000
0010
0000
0000
0000
,
0000
0100
0000
0000
0000
0000
0000
0000
0000
0000
0000
0000
,
0000
0000
0000
0000
,
0000
0000
0000
0000
,
0000
0000
0000
0000
,
1000
0000
1000
0000
1000
0001
0000
1000
,
0001
0000
0001
0000
0001
1000
0000
0001
,
1000
0000
1000
0000
1000
0100
0000
1000
,
0100
0100
0110
0000
,
0010
0000
0010
0000
0010
0001
0000
0010
,
0001
0000
0001
0000
0001
0100
0000
0001
,
0100
0000
0100
0000
0100
0010
0000
0100
,
0010
0010
0110
0000
,
0100
0000
0100
0000
0100
0010
0000
0100
,
0010
0000
0010
0000
0010
1000
0000
0010
,
1000
0000
1000
0000
1000
0001
0000
1000
,
0001
0001
1001
0000
,
1000
0000
1000
0000
1000
0100
0000
1000
,
0100
0000
0100
0000
0100
0010
0000
0100
,
0010
0100
0010
0000
0100
0010
0100
0000
,
0010
0000
0000
0000
,
1000
0000
0000
0000
0000
0100
0000
0000
,
0000
0000
0010
0000
0000
0100
0000
0000
0000
0000
0000
0000
,
0000
0000
0000
0000
,
0000
0000
0000
0000
,
0000
0000
0000
0000
,
1001
0000
1001
0000
1001
1001
0000
1001
,
1001
0000
1001
0000
1001
1001
0000
1001
,
1001
0000
1001
0000
1001
1001
0000
1001
,
1001
1001
1001
0000
,
1010
0000
1010
0000
1010
1010
0000
1010
,
1010
0000
1010
0000
1010
1010
0000
1010
,
1010
0000
1010
0000
1010
1010
0000
1010
,
1010
1010
1010
0000
,
0101
0000
0101
0000
0101
0101
0000
0101
,
0101
0000
0101
0000
0101
0101
0000
0101
,
0101
0000
0101
0000
0101
0101
0000
0101
,
0101
0101
0101
0000
,
0110
0000
0110
0000
0110
0110
0000
0110
,
0110
0000
0110
0000
0110
0110
0000
0110
,
0110
0110
0110
0000
0110
0110
0110
0000
,
0110
0000
0000
0000
,
0000
1000
0000
0000
0000
0000
0100
0000
,
0000
0000
0000
0010
0000
0000
0000
0000
,
0100
0000
0000
0000
;
